<?xml version="1.0" standalone="no"?>
<!DOCTYPE svg PUBLIC "-//W3C//DTD SVG 1.1//EN" "http://www.w3.org/Graphics/SVG/1.1/DTD/svg11.dtd">
<svg xmlns="http://www.w3.org/2000/svg">
<defs >
<font id="Inter" horiz-adv-x="1838" ><font-face
    font-family="Inter SemiBold"
    units-per-em="2816"
    panose-1="2 0 5 3 0 0 0 2 0 4"
    ascent="2728"
    descent="-680"
    alphabetic="0" />
<glyph unicode=" " glyph-name="uni0020" horiz-adv-x="699" />
<glyph unicode="!" glyph-name="uni0021" horiz-adv-x="870" d="M629 2048L596 602H274L242 2048H629ZM435 -22Q344 -22 280 42T215 198Q215 288 279 352T435 416Q524 416 589 352T655 198Q655 137 625 87T545 8T435 -22Z" />
<glyph unicode="&quot;" glyph-name="uni0022" horiz-adv-x="1115" d="M436 2048V1294H160V2048H436ZM951 2048V1294H675V2048H951Z" />
<glyph unicode="#" glyph-name="uni0023" horiz-adv-x="1811" d="M958 0L1294 2048H1574L1238 0H958ZM35 528L82 808H1658L1611 528H35ZM238 0L574 2048H854L518 0H238ZM154 1240L200 1520H1776L1730 1240H154Z" />
<glyph unicode="$" glyph-name="uni0024" horiz-adv-x="1828" d="M842 -256V2304H1006V-256H842ZM1315 1485Q1301 1616 1198 1689T929 1762Q813 1762 730 1727T603 1632T558 1495Q558 1431 587 1384T668 1305T781 1250T906 1213L1098 1165Q1214 1138 1321 1092T1514
976T1650 807T1700 575Q1700 395 1608 259T1343 46T923 -31Q684 -31 509 43T235 259T128 605H493Q501 498 559 427T710 321T920 286Q1041 286 1132 322T1276 424T1329 578Q1328 658 1282 710T1154 798T961 862L728 922Q475 987 329 1119T182 1472Q182 1653 280
1789T549 2000T934 2076Q1152 2076 1316 2001T1575 1792T1672 1485H1315Z" />
<glyph unicode="%" glyph-name="uni0025" horiz-adv-x="2376" d="M1277 384V492Q1277 611 1327 711T1475 872T1710 933Q1852 933 1948 873T2093 712T2143 492V384Q2143 265 2093 165T1947 4T1710 -57Q1570 -57 1473 4T1327 165T1277 384ZM1538 492V384Q1538 305
1576 239T1710 173Q1807 173 1843 238T1880 384V492Q1880 572 1845 638T1710 705Q1616 705 1577 639T1538 492ZM236 1556V1664Q236 1784 287 1884T435 2044T670 2105Q811 2105 907 2045T1053 1884T1102 1664V1556Q1102 1436 1053 1337T906 1177T670 1117Q529 1117
433 1177T286 1337T236 1556ZM499 1664V1556Q499 1476 536 1411T670 1345Q766 1345 802 1410T839 1556V1664Q839 1744 804 1810T670 1877Q575 1877 537 1810T499 1664ZM350 0L1758 2048H2008L600 0H350Z" />
<glyph unicode="&amp;" glyph-name="uni0026" horiz-adv-x="1866" d="M798 -30Q588 -30 437 46T205 251T123 544Q123 667 173 762T313 938T521 1099L884 1346Q964 1398 1005 1456T1047 1592Q1047 1658 992 1717T839 1776Q774 1776 725 1746T648 1666T620 1562Q620
1495 657 1426T755 1283T885 1126L1846 0H1454L656 914Q567 1018 485 1119T350 1329T297 1567Q297 1712 364 1826T551 2007T834 2073Q996 2073 1112 2009T1291 1839T1354 1608Q1354 1463 1282 1349T1082 1141L668 838Q566 764 522 689T478 560Q478 479 519 413T634
308T809 268Q919 268 1026 317T1221 459T1361 679T1413 965H1724Q1724 771 1681 628T1570 386T1426 228Q1402 211 1380 194T1334 160Q1226 62 1082 16T798 -30Z" />
<glyph unicode="&apos;" glyph-name="uni0027" horiz-adv-x="600" d="M436 2048V1294H160V2048H436Z" />
<glyph unicode="(" glyph-name="uni0028" horiz-adv-x="1108" d="M276 835Q276 1210 375 1524T672 2106H1013Q937 2007 871 1864T757 1550T681 1196T653 835Q653 598 700 355T829 -95T1013 -435H672Q475 -168 376 146T276 835Z" />
<glyph unicode=")" glyph-name="uni0029" horiz-adv-x="1108" d="M832 835Q832 461 733 147T436 -435H95Q172 -336 237 -193T351 121T427 475T455 835Q455 1072 408 1315T279 1766T95 2106H436Q633 1839 732 1525T832 835Z" />
<glyph unicode="*" glyph-name="uni002A" horiz-adv-x="1530" d="M643 896L666 1301L326 1078L204 1290L567 1472L204 1654L326 1866L666 1643L643 2048H886L864 1643L1204 1866L1326 1654L962 1472L1326 1290L1204 1078L864 1301L886 896H643Z" />
<glyph unicode="+" glyph-name="uni002B" horiz-adv-x="1894" d="M790 121V1505H1104V121H790ZM255 656V970H1639V656H255Z" />
<glyph unicode="," glyph-name="uni002C" horiz-adv-x="831" d="M611 280L598 170Q584 44 549 -86T474 -327T411 -500H167Q181 -439 205 -334T253 -98T284 168L291 280H611Z" />
<glyph unicode="-" glyph-name="uni002D" horiz-adv-x="1312" d="M1117 1002V704H195V1002H1117Z" />
<glyph unicode="." glyph-name="uni002E" horiz-adv-x="818" d="M409 -22Q318 -22 253 42T189 198Q188 288 253 352T409 416Q497 416 562 352T629 198Q628 137 598 87T518 8T409 -22Z" />
<glyph unicode="/" glyph-name="uni002F" horiz-adv-x="1066" d="M1022 2144L362 -308H45L705 2144H1022Z" />
<glyph unicode="0" glyph-name="uni0030" horiz-adv-x="1878" d="M939 -39Q692 -39 516 86T245 449T150 1022Q151 1357 245 1592T516 1952T939 2076Q1185 2076 1362 1952T1633 1592T1728 1022Q1728 686 1634 449T1363 86T939 -39ZM939 274Q1131 274 1242 463T1354
1022Q1354 1266 1303 1432T1159 1682T939 1767Q748 1767 637 1578T525 1022Q524 777 574 610T718 359T939 274Z" />
<glyph unicode="1" glyph-name="uni0031" horiz-adv-x="1354" d="M1015 2048V0H644V1687H632L153 1381V1721L662 2048H1015Z" />
<glyph unicode="2" glyph-name="uni0032" horiz-adv-x="1750" d="M182 0V268L893 965Q995 1068 1063 1148T1165 1303T1199 1463Q1199 1560 1155 1629T1034 1737T859 1775Q758 1775 682 1734T565 1616T523 1435H170Q170 1630 259 1774T504 1997T864 2076Q1070 2076
1226 1999T1468 1788T1555 1482Q1555 1367 1511 1256T1357 1010T1047 683L694 324V310H1586V0H182Z" />
<glyph unicode="3" glyph-name="uni0033" horiz-adv-x="1835" d="M917 -28Q701 -28 534 46T269 252T166 557H542Q547 474 597 413T730 317T916 283Q1026 283 1111 321T1244 429T1291 588Q1292 681 1243 752T1102 863T879 903H698V1189H879Q986 1189 1066 1226T1193
1330T1238 1487Q1239 1574 1200 1638T1089 1739T921 1775Q827 1775 747 1741T618 1645T566 1496H209Q213 1668 308 1798T564 2002T923 2076Q1128 2076 1279 2000T1514 1794T1597 1509Q1598 1336 1496 1219T1227 1066V1050Q1443 1020 1558 891T1673 569Q1673 397
1576 262T1308 49T917 -28Z" />
<glyph unicode="4" glyph-name="uni0034" horiz-adv-x="1875" d="M145 380V675L1014 2048H1260V1628H1110L525 701V685H1738V380H145ZM1122 0V470L1126 602V2048H1476V0H1122Z" />
<glyph unicode="5" glyph-name="uni0035" horiz-adv-x="1781" d="M894 -28Q694 -28 536 47T286 255T187 557H547Q557 431 656 352T894 272Q1003 272 1088 322T1222 461T1270 664Q1271 780 1221 870T1084 1011T884 1063Q792 1064 703 1029T562 937L227 992L334
2048H1522V1738H641L582 1195H594Q651 1262 755 1306T983 1351Q1169 1351 1315 1264T1545 1023T1629 673Q1629 470 1536 312T1277 63T894 -28Z" />
<glyph unicode="6" glyph-name="uni0036" horiz-adv-x="1825" d="M932 -28Q785 -27 645 23T393 188T215 493T150 966Q150 1229 206 1435T367 1783T620 2001T953 2076Q1146 2076 1295 2000T1537 1793T1651 1496H1286Q1258 1614 1172 1684T953 1755Q740 1755 626
1570T510 1062H524Q573 1150 651 1213T827 1310T1036 1345Q1216 1345 1359 1259T1587 1023T1670 678Q1671 476 1578 316T1319 63T932 -28ZM930 272Q1039 272 1125 325T1261 468T1310 670Q1311 780 1263 869T1129 1010T935 1062Q854 1062 784 1031T662 946T581 820T550
667Q551 560 600 470T735 326T930 272Z" />
<glyph unicode="7" glyph-name="uni0037" horiz-adv-x="1653" d="M257 0L1128 1724V1738H117V2048H1512V1731L642 0H257Z" />
<glyph unicode="8" glyph-name="uni0038" horiz-adv-x="1819" d="M910 -28Q687 -28 515 47T245 252T148 549Q147 678 204 786T358 966T576 1059V1073Q418 1108 321 1234T224 1527Q223 1685 312 1809T556 2004T910 2076Q1107 2076 1261 2005T1505 1809T1595 1527Q1595
1361 1497 1235T1243 1073V1059Q1363 1039 1459 967T1613 786T1671 549Q1671 383 1573 253T1304 47T910 -28ZM910 258Q1025 258 1110 297T1242 409T1290 575Q1289 673 1240 748T1105 867T910 910Q800 910 714 867T579 749T530 575Q529 481 576 410T708 298T910
258ZM910 1191Q1004 1191 1076 1229T1191 1335T1234 1492Q1233 1580 1192 1646T1078 1749T910 1786Q813 1786 740 1750T626 1647T586 1492Q585 1403 626 1336T741 1230T910 1191Z" />
<glyph unicode="9" glyph-name="uni0039" horiz-adv-x="1825" d="M893 2076Q1040 2075 1179 2025T1431 1861T1609 1557T1675 1087Q1676 823 1620 616T1458 265T1205 47T872 -28Q678 -28 529 48T287 256T174 558H539Q567 436 653 365T872 293Q1085 293 1200 478T1315
992H1301Q1252 904 1174 841T998 743T789 709Q609 709 466 795T239 1031T154 1374Q154 1574 246 1733T505 1985T893 2076ZM894 1776Q786 1776 700 1724T564 1582T514 1382Q515 1273 563 1184T696 1043T890 991Q971 991 1041 1022T1163 1108T1245 1235T1274 1385Q1274
1490 1225 1579T1090 1722T894 1776Z" />
<glyph unicode=":" glyph-name="uni003A" horiz-adv-x="818" d="M409 -22Q318 -22 253 42T189 198Q188 288 253 352T409 416Q497 416 562 352T629 198Q628 137 598 87T518 8T409 -22ZM409 1074Q318 1074 253 1138T189 1294Q188 1384 253 1448T409 1513Q497 1513
562 1449T629 1294Q628 1234 598 1184T518 1104T409 1074Z" />
<glyph unicode=";" glyph-name="uni003B" horiz-adv-x="831" d="M611 280L598 170Q584 44 549 -86T474 -327T411 -500H167Q181 -439 205 -334T253 -98T284 168L291 280H611ZM445 1074Q354 1074 289 1138T225 1294Q224 1384 289 1448T445 1513Q533 1513 598 1449T665
1294Q664 1234 634 1184T554 1104T445 1074Z" />
<glyph unicode="&lt;" glyph-name="uni003C" horiz-adv-x="1894" d="M263 669V957L1631 1589V1234L659 817L670 836V790L659 809L1631 392V37L263 669Z" />
<glyph unicode="=" glyph-name="uni003D" horiz-adv-x="1894" d="M282 978V1287H1613V978H282ZM282 338V647H1613V338H282Z" />
<glyph unicode="&gt;" glyph-name="uni003E" horiz-adv-x="1894" d="M1631 669L263 37V392L1235 809L1224 790V836L1235 817L263 1234V1589L1631 957V669Z" />
<glyph unicode="?" glyph-name="uni003F" horiz-adv-x="1532" d="M532 602V628Q533 809 566 916T662 1088T813 1209Q874 1247 922 1292T999 1394T1027 1521Q1027 1600 990 1658T891 1748T751 1780Q680 1780 617 1750T512 1658T465 1502H109Q114 1692 201 1820T433
2012T753 2076Q944 2076 1089 2009T1316 1819T1398 1526Q1398 1412 1362 1322T1258 1162T1099 1037Q1018 987 967 933T891 807T865 628V602H532ZM706 -22Q616 -22 551 42T486 198Q486 288 551 352T706 416Q795 416 860 352T926 198Q926 137 896 87T816 8T706 -22Z"
/>
<glyph unicode="@" glyph-name="uni0040" horiz-adv-x="2814" d="M1473 -574Q1158 -574 914 -489T501 -238T246 166T158 710Q159 1009 247 1249T504 1661T917 1925T1472 2017Q1765 2017 1991 1928T2374 1681T2611 1311T2692 852Q2692 681 2666 529T2578 258T2408
71T2140 -5Q2039 -10 1963 14T1841 89T1782 216H1770Q1747 156 1684 107T1527 30T1320 7Q1198 13 1095 63T915 205T796 427T754 722Q754 883 800 1006T923 1216T1099 1352T1301 1416Q1409 1431 1504 1413T1662 1358T1742 1277H1756V1389H2035V437Q2036 362 2071
316T2171 270Q2251 270 2300 333T2372 529T2394 869Q2395 1039 2350 1177T2221 1421T2023 1596T1766 1703T1465 1739Q1220 1739 1034 1665T723 1453T534 1129T470 714Q470 471 536 284T732 -32T1051 -226T1490 -292Q1604 -292 1713 -274T1909 -232T2043 -190L2128
-444Q2066 -476 1961 -506T1729 -555T1473 -574ZM1403 294Q1530 294 1606 343T1715 491T1747 735Q1747 871 1713 958T1604 1087T1405 1129Q1293 1129 1215 1078T1095 938T1053 734Q1053 620 1086 520T1196 357T1403 294Z" />
<glyph unicode="A" glyph-name="uni0041" horiz-adv-x="2038" d="M465 0H69L790 2048H1248L1970 0H1574L1027 1628H1011L465 0ZM478 803H1558V505H478V803Z" />
<glyph unicode="B" glyph-name="uni0042" horiz-adv-x="1851" d="M202 0V2048H986Q1208 2048 1355 1979T1576 1789T1650 1517Q1650 1392 1602 1304T1473 1160T1292 1081V1061Q1401 1055 1501 995T1666 824T1730 558Q1730 399 1653 273T1421 73T1031 0H202ZM573
310H972Q1174 310 1263 387T1353 587Q1353 678 1308 751T1180 867T982 910H573V310ZM573 1177H940Q1036 1177 1113 1212T1234 1313T1279 1469Q1279 1588 1196 1665T948 1742H573V1177Z" />
<glyph unicode="C" glyph-name="uni0043" horiz-adv-x="2094" d="M1955 1357H1581Q1565 1449 1522 1520T1415 1642T1270 1717T1094 1743Q927 1743 798 1660T596 1416T523 1024Q523 789 596 629T798 387T1093 305Q1185 305 1265 329T1410 402T1519 520T1581 680L1955
678Q1934 532 1865 404T1683 179T1421 27T1088 -28Q818 -28 606 97T272 458T150 1024Q150 1355 273 1590T608 1951T1088 2076Q1259 2076 1406 2028T1668 1888T1857 1662T1955 1357Z" />
<glyph unicode="D" glyph-name="uni0044" horiz-adv-x="2040" d="M896 0H202V2048H910Q1215 2048 1434 1926T1772 1574T1890 1026Q1890 706 1772 476T1431 123T896 0ZM573 321H878Q1092 321 1235 399T1450 634T1522 1026Q1522 1261 1450 1416T1238 1649T889 1727H573V321Z"
/>
<glyph unicode="E" glyph-name="uni0045" horiz-adv-x="1711" d="M202 0V2048H1534V1737H573V1181H1465V870H573V311H1542V0H202Z" />
<glyph unicode="F" glyph-name="uni0046" horiz-adv-x="1649" d="M202 0V2048H1514V1737H573V1181H1424V870H573V0H202Z" />
<glyph unicode="G" glyph-name="uni0047" horiz-adv-x="2126" d="M1574 1394Q1549 1475 1506 1539T1402 1650T1263 1719T1093 1743Q928 1743 799 1660T597 1417T523 1026Q523 794 596 633T799 389T1101 305Q1257 305 1371 365T1548 535T1610 795L1694 782H1138V1072H1969V826Q1969
563 1857 371T1549 76T1099 -28Q816 -28 603 99T270 462T150 1022Q150 1270 220 1465T418 1796T716 2004T1088 2076Q1258 2076 1405 2027T1666 1886T1855 1670T1952 1394H1574Z" />
<glyph unicode="H" glyph-name="uni0048" horiz-adv-x="2095" d="M202 0V2048H573V1181H1522V2048H1894V0H1522V870H573V0H202Z" />
<glyph unicode="I" glyph-name="uni0049" horiz-adv-x="774" d="M573 2048V0H202V2048H573Z" />
<glyph unicode="J" glyph-name="uni004A" horiz-adv-x="1579" d="M1010 2048H1378V608Q1377 410 1294 268T1063 49T717 -28Q537 -28 394 36T166 228T82 544H451Q452 461 487 401T586 309T731 277Q820 277 882 314T976 426T1010 608V2048Z" />
<glyph unicode="K" glyph-name="uni004B" horiz-adv-x="1906" d="M202 0V2048H573V1107H598L1397 2048H1850L1058 1129L1857 0H1411L800 878L573 610V0H202Z" />
<glyph unicode="L" glyph-name="uni004C" horiz-adv-x="1594" d="M202 0V2048H573V311H1475V0H202Z" />
<glyph unicode="M" glyph-name="uni004D" horiz-adv-x="2552" d="M202 2048H656L1264 564H1288L1896 2048H2350V0H1994V1407H1975L1409 6H1143L577 1410H558V0H202V2048Z" />
<glyph unicode="N" glyph-name="uni004E" horiz-adv-x="2086" d="M1885 2048V0H1555L590 1395H573V0H202V2048H534L1498 652H1516V2048H1885Z" />
<glyph unicode="O" glyph-name="uni004F" horiz-adv-x="2182" d="M2032 1024Q2032 693 1909 458T1573 97T1091 -28Q822 -28 610 97T274 458T150 1024Q150 1355 273 1590T609 1951T1091 2076Q1360 2076 1572 1951T1908 1591T2032 1024ZM1659 1024Q1659 1257 1587
1417T1386 1660T1091 1743Q924 1743 796 1661T596 1418T523 1024Q523 791 595 631T796 388T1091 305Q1258 305 1386 387T1586 630T1659 1024Z" />
<glyph unicode="P" glyph-name="uni0050" horiz-adv-x="1812" d="M202 0V2048H970Q1206 2048 1366 1960T1609 1719T1692 1370Q1692 1173 1609 1020T1364 780T965 692H456V997H915Q1053 997 1141 1045T1271 1177T1314 1370Q1314 1479 1272 1562T1141 1691T913 1738H573V0H202Z"
/>
<glyph unicode="Q" glyph-name="uni0051" horiz-adv-x="2184" d="M965 688H1301L1500 430L1642 262L1983 -176H1623L1391 118L1292 258L965 688ZM2032 1024Q2032 693 1909 458T1573 97T1091 -28Q822 -28 610 97T274 458T150 1024Q150 1355 273 1590T609 1951T1091
2076Q1360 2076 1572 1951T1908 1591T2032 1024ZM1659 1024Q1659 1257 1587 1417T1386 1660T1091 1743Q924 1743 796 1661T596 1418T523 1024Q523 791 595 631T796 388T1091 305Q1258 305 1386 387T1586 630T1659 1024Z" />
<glyph unicode="R" glyph-name="uni0052" horiz-adv-x="1832" d="M202 0V2048H970Q1206 2048 1366 1966T1609 1737T1692 1393Q1692 1196 1609 1052T1363 829T965 750H418V1058H915Q1053 1058 1141 1096T1271 1209T1314 1393Q1314 1502 1271 1579T1140 1697T913
1738H573V0H202ZM1260 928L1767 0H1353L855 928H1260Z" />
<glyph unicode="S" glyph-name="uni0053" horiz-adv-x="1828" d="M1315 1485Q1301 1616 1198 1689T929 1762Q813 1762 730 1727T603 1632T558 1495Q558 1431 587 1384T668 1305T781 1250T906 1213L1098 1165Q1214 1138 1321 1092T1514 976T1650 807T1700 575Q1700
395 1608 259T1343 46T923 -31Q684 -31 509 43T235 259T128 605H493Q501 498 559 427T710 321T920 286Q1041 286 1132 322T1276 424T1329 578Q1328 658 1282 710T1154 798T961 862L728 922Q475 987 329 1119T182 1472Q182 1653 280 1789T549 2000T934 2076Q1152
2076 1316 2001T1575 1792T1672 1485H1315Z" />
<glyph unicode="T" glyph-name="uni0054" horiz-adv-x="1858" d="M112 1737V2048H1746V1737H1113V0H745V1737H112Z" />
<glyph unicode="U" glyph-name="uni0055" horiz-adv-x="2066" d="M1493 2048H1864V710Q1864 490 1761 323T1470 63T1033 -31Q782 -31 595 62T305 323T202 710V2048H573V741Q573 613 629 513T789 357T1033 300Q1174 300 1277 356T1437 513T1493 741V2048Z" />
<glyph unicode="V" glyph-name="uni0056" horiz-adv-x="2038" d="M476 2048L1009 436H1030L1562 2048H1970L1248 0H790L69 2048H476Z" />
<glyph unicode="W" glyph-name="uni0057" horiz-adv-x="2835" d="M633 0L55 2048H454L823 543H842L1236 2048H1599L1994 542H2012L2381 2048H2780L2202 0H1836L1426 1437H1410L999 0H633Z" />
<glyph unicode="X" glyph-name="uni0058" horiz-adv-x="1944" d="M512 2048L963 1298H979L1432 2048H1855L1224 1024L1865 0H1435L979 745H963L507 0H79L726 1024L87 2048H512Z" />
<glyph unicode="Y" glyph-name="uni0059" horiz-adv-x="1984" d="M62 2048H481L982 1142H1002L1503 2048H1922L1177 764V0H807V764L62 2048Z" />
<glyph unicode="Z" glyph-name="uni005A" d="M164 0V231L1214 1737H158V2048H1674V1817L625 311H1680V0H164Z" />
<glyph unicode="[" glyph-name="uni005B" horiz-adv-x="1108" d="M310 -435V2106H1033V1828H658V-158H1033V-435H310Z" />
<glyph unicode="\" glyph-name="uni005C" horiz-adv-x="1066" d="M705 -308L45 2144H362L1022 -308H705Z" />
<glyph unicode="]" glyph-name="uni005D" horiz-adv-x="1108" d="M798 2106V-435H75V-158H450V1828H75V2106H798Z" />
<glyph unicode="^" glyph-name="uni005E" horiz-adv-x="1355" d="M642 1842H714V1735H642V1842ZM99 1120L518 1997H838L1256 1120H962L667 1775H688L395 1120H99Z" />
<glyph unicode="_" glyph-name="uni005F" horiz-adv-x="1318" d="M1321 0V-289H-2V0H1321Z" />
<glyph unicode="`" glyph-name="uni0060" horiz-adv-x="1400" d="M718 1738L411 2195H766L989 1738H718Z" />
<glyph unicode="a" glyph-name="uni0061" horiz-adv-x="1618" d="M628 -31Q482 -31 366 21T182 177T114 431Q114 561 162 646T293 782T480 859T697 898Q832 912 916 923T1038 959T1077 1036V1042Q1077 1155 1010 1217T817 1279Q684 1279 607 1221T502 1084L164
1132Q204 1272 296 1366T521 1508T815 1556Q926 1556 1036 1530T1237 1445T1383 1283T1439 1028V0H1091V211H1079Q1046 147 987 92T838 3T628 -31ZM722 235Q831 235 911 278T1034 394T1078 551V732Q1061 718 1021 706T930 685T831 669T746 657Q665 646 601 621T500
552T463 437Q463 337 536 286T722 235Z" />
<glyph unicode="b" glyph-name="uni0062" horiz-adv-x="1775" d="M202 0V2048H564V1282H579Q607 1338 658 1401T796 1510T1018 1556Q1196 1556 1339 1466T1567 1199T1652 766Q1652 513 1569 336T1343 66T1019 -27Q887 -27 800 17T661 123T579 242H558V0H202ZM557
768Q557 619 599 507T722 333T918 270Q1038 270 1119 334T1241 511T1283 768Q1283 911 1242 1022T1120 1196T918 1259Q802 1259 721 1198T599 1027T557 768Z" />
<glyph unicode="c" glyph-name="uni0063" horiz-adv-x="1626" d="M856 -30Q626 -30 462 71T209 350T120 762Q120 996 210 1175T464 1455T854 1556Q1041 1556 1185 1488T1416 1295T1514 1004H1168Q1147 1115 1069 1189T859 1264Q748 1264 664 1205T534 1034T487
768Q487 611 533 499T662 326T859 265Q939 265 1002 295T1109 384T1168 525H1514Q1501 362 1418 237T1192 41T856 -30Z" />
<glyph unicode="d" glyph-name="uni0064" horiz-adv-x="1775" d="M756 -27Q575 -27 432 66T206 336T123 766Q123 1022 207 1198T436 1465T757 1556Q892 1556 979 1511T1117 1402T1196 1282H1211V2048H1574V0H1218V242H1196Q1168 186 1115 124T975 17T756 -27ZM857
270Q972 270 1053 332T1176 507T1218 768Q1218 917 1177 1027T1055 1198T857 1259Q736 1259 655 1196T533 1022T492 768Q492 624 533 512T656 335T857 270Z" />
<glyph unicode="e" glyph-name="uni0065" horiz-adv-x="1669" d="M866 -30Q635 -30 468 66T210 340T120 759Q120 996 210 1175T464 1455T847 1556Q989 1556 1115 1511T1339 1370T1493 1129T1549 780V669H290V913H1202Q1201 1017 1157 1098T1035 1227T852 1274Q741
1274 657 1221T527 1081T479 891V678Q479 544 528 449T665 303T871 252Q950 252 1014 274T1125 341T1196 450L1534 412Q1502 278 1413 179T1184 25T866 -30Z" />
<glyph unicode="f" glyph-name="uni0066" horiz-adv-x="1062" d="M964 1536V1256H56V1536H964ZM283 0V1681Q283 1836 347 1939T521 2093T763 2144Q857 2144 930 2129T1038 2102L966 1822Q943 1829 908 1836T830 1844Q729 1844 688 1796T646 1657V0H283Z" />
<glyph unicode="g" glyph-name="uni0067" horiz-adv-x="1761" d="M854 -608Q659 -608 519 -556T294 -415T176 -220L502 -141Q524 -186 566 -230T679 -304T860 -334Q1014 -334 1115 -260T1216 -15V276H1198Q1170 220 1117 161T976 62T756 22Q579 22 436 105T208
355T123 773Q123 1026 207 1200T436 1465T757 1556Q892 1556 979 1511T1119 1402T1198 1282H1218V1536H1575V-25Q1575 -222 1481 -351T1224 -544T854 -608ZM857 306Q972 306 1053 362T1176 523T1218 775Q1218 920 1177 1029T1055 1198T857 1259Q736 1259 655 1196T533
1024T492 775Q492 634 533 529T656 365T857 306Z" />
<glyph unicode="h" glyph-name="uni0068" horiz-adv-x="1726" d="M548 900V0H186V2048H540V1275H558Q612 1405 725 1480T1015 1556Q1175 1556 1294 1489T1478 1293T1544 978V0H1182V922Q1182 1077 1103 1163T880 1250Q784 1250 709 1209T591 1089T548 900Z" />
<glyph unicode="i" glyph-name="uni0069" horiz-adv-x="734" d="M186 0V1536H548V0H186ZM368 1754Q282 1754 220 1811T158 1950Q158 2032 220 2089T368 2147Q455 2147 516 2090T578 1950Q578 1869 517 1812T368 1754Z" />
<glyph unicode="j" glyph-name="uni006A" horiz-adv-x="734" d="M186 1536H548V-88Q548 -254 485 -362T303 -523T14 -576Q-6 -576 -23 -576T-60 -574V-279Q-45 -280 -33 -280T-8 -281Q96 -281 141 -231T186 -83V1536ZM366 1754Q279 1754 218 1811T156 1950Q156
2032 217 2089T366 2147Q452 2147 513 2090T575 1950Q575 1869 514 1812T366 1754Z" />
<glyph unicode="k" glyph-name="uni006B" horiz-adv-x="1602" d="M516 482L515 919H573L1125 1536H1548L869 780H794L516 482ZM186 0V2048H548V0H186ZM1150 0L650 699L894 954L1583 0H1150Z" />
<glyph unicode="l" glyph-name="uni006C" horiz-adv-x="734" d="M548 2048V0H186V2048H548Z" />
<glyph unicode="m" glyph-name="uni006D" horiz-adv-x="2528" d="M186 0V1536H532V1275H550Q598 1407 709 1481T974 1556Q1130 1556 1237 1481T1389 1275H1405Q1456 1403 1577 1479T1866 1556Q2078 1556 2212 1422T2346 1031V0H1983V975Q1983 1118 1907 1184T1721
1251Q1590 1251 1517 1170T1443 958V0H1088V990Q1088 1109 1017 1180T830 1251Q752 1251 688 1212T586 1101T548 934V0H186Z" />
<glyph unicode="n" glyph-name="uni006E" horiz-adv-x="1717" d="M548 900V0H186V1536H532V1275H550Q603 1404 719 1480T1008 1556Q1167 1556 1285 1488T1469 1291T1534 978V0H1172V922Q1172 1076 1093 1163T873 1250Q778 1250 705 1209T590 1089T548 900Z" />
<glyph unicode="o" glyph-name="uni006F" horiz-adv-x="1712" d="M856 -30Q631 -30 466 69T211 346T120 762Q120 1000 210 1179T466 1457T856 1556Q1081 1556 1246 1457T1501 1179T1592 762Q1592 524 1502 346T1246 69T856 -30ZM858 260Q980 260 1062 327T1184
509T1225 763Q1225 904 1185 1018T1062 1201T858 1269Q733 1269 651 1201T528 1019T487 763Q487 623 527 509T650 328T858 260Z" />
<glyph unicode="p" glyph-name="uni0070" horiz-adv-x="1759" d="M186 -576V1536H542V1282H563Q591 1338 642 1401T780 1510T1002 1556Q1180 1556 1323 1466T1551 1199T1636 766Q1636 513 1553 336T1327 66T1003 -27Q871 -27 784 17T645 123T563 242H548V-576H186ZM541
768Q541 619 583 507T706 333T902 270Q1022 270 1103 334T1225 511T1267 768Q1267 911 1226 1022T1104 1196T902 1259Q786 1259 705 1198T583 1027T541 768Z" />
<glyph unicode="q" glyph-name="uni0071" horiz-adv-x="1759" d="M1211 -576V242H1196Q1168 186 1115 124T975 17T756 -27Q575 -27 432 66T206 336T123 766Q123 1022 207 1198T436 1465T757 1556Q892 1556 979 1511T1117 1402T1196 1282H1218V1536H1574V-576H1211ZM857
270Q972 270 1053 332T1176 507T1218 768Q1218 917 1177 1027T1055 1198T857 1259Q736 1259 655 1196T533 1022T492 768Q492 624 533 512T656 335T857 270Z" />
<glyph unicode="r" glyph-name="uni0072" horiz-adv-x="1117" d="M186 0V1536H537V1280H553Q595 1413 697 1485T932 1558Q962 1558 999 1556T1062 1548V1215Q1039 1223 990 1229T894 1236Q795 1236 717 1194T593 1076T548 903V0H186Z" />
<glyph unicode="s" glyph-name="uni0073" horiz-adv-x="1546" d="M1400 1130L1070 1094Q1056 1144 1022 1188T929 1259T787 1286Q674 1286 598 1237T522 1110Q521 1043 571 1001T739 932L1001 876Q1219 829 1325 727T1433 460Q1432 315 1349 205T1117 32T777 -30Q495
-30 323 88T118 419L471 453Q495 349 573 296T776 243Q905 243 983 296T1062 427Q1062 493 1012 536T855 602L593 657Q372 703 266 812T161 1090Q160 1232 238 1336T457 1498T782 1556Q1052 1556 1207 1441T1400 1130Z" />
<glyph unicode="t" glyph-name="uni0074" horiz-adv-x="1070" d="M953 1536V1256H70V1536H953ZM288 1904H650V462Q650 389 672 351T732 298T814 284Q848 284 876 289T920 298L981 15Q952 5 899 -7T768 -21Q632 -25 523 20T351 162T288 402V1904Z" />
<glyph unicode="u" glyph-name="uni0075" horiz-adv-x="1713" d="M1165 646V1536H1527V0H1176V273H1160Q1108 144 990 62T698 -20Q547 -20 432 47T251 244T186 558V1536H548V614Q548 468 628 382T838 296Q918 296 993 335T1116 451T1165 646Z" />
<glyph unicode="v" glyph-name="uni0076" horiz-adv-x="1622" d="M1558 1536L1011 0H611L64 1536H450L803 395H819L1173 1536H1558Z" />
<glyph unicode="w" glyph-name="uni0077" horiz-adv-x="2358" d="M503 0L69 1536H438L708 456H722L998 1536H1363L1639 462H1654L1920 1536H2290L1855 0H1478L1190 1038H1169L881 0H503Z" />
<glyph unicode="x" glyph-name="uni0078" horiz-adv-x="1584" d="M482 1536L792 969L1107 1536H1490L1027 768L1498 0H1117L792 553L470 0H86L554 768L98 1536H482Z" />
<glyph unicode="y" glyph-name="uni0079" horiz-adv-x="1622" d="M411 -576Q337 -576 275 -565T175 -538L259 -256Q338 -279 400 -278T509 -240T590 -115L621 -32L64 1536H448L802 376H818L1173 1536H1558L943 -186Q900 -308 829 -395T656 -529T411 -576Z" />
<glyph unicode="z" glyph-name="uni007A" horiz-adv-x="1582" d="M166 0V230L958 1223V1236H192V1536H1401V1289L647 313V300H1427V0H166Z" />
<glyph unicode="{" glyph-name="uni007B" horiz-adv-x="1108" d="M93 828V1003Q263 1003 330 1072T398 1299V1554Q398 1723 440 1831T565 1999T765 2082T1033 2106V1828Q915 1828 852 1796T766 1696T742 1525V1197Q742 1120 716 1053T621 936T425 857T93 828ZM1033
-435Q883 -435 765 -412T565 -328T441 -160T398 117V371Q398 528 331 597T93 667V842Q297 842 424 814T621 735T716 617T742 474V146Q742 42 765 -25T852 -125T1033 -158V-435ZM93 667V1003H410V667H93Z" />
<glyph unicode="|" glyph-name="uni007C" horiz-adv-x="1008" d="M672 2708V-660H336V2708H672Z" />
<glyph unicode="}" glyph-name="uni007D" horiz-adv-x="1108" d="M1015 842V667Q845 667 778 598T710 371V117Q710 -52 668 -160T543 -328T343 -411T75 -435V-158Q193 -158 256 -125T342 -25T366 146V474Q366 550 392 617T487 734T683 813T1015 842ZM75 2106Q225
2106 343 2083T543 1999T667 1831T710 1554V1299Q710 1142 777 1073T1015 1003V828Q811 828 684 856T487 935T392 1053T366 1197V1525Q366 1629 343 1696T256 1795T75 1828V2106ZM1015 1003V667H698V1003H1015Z" />
<glyph unicode="~" glyph-name="uni007E" horiz-adv-x="1894" d="M221 571Q216 753 269 874T419 1055T641 1116Q738 1116 823 1076T1018 938Q1081 884 1122 857T1216 830Q1292 830 1339 888T1384 1066H1674Q1679 885 1625 764T1473 583T1254 522Q1154 522 1068
564T875 699Q809 757 770 782T678 807Q605 807 557 753T510 571H221Z" />
<glyph unicode="&#xa0;" glyph-name="uni00A0" horiz-adv-x="699" />
<glyph unicode="&#xa1;" glyph-name="uni00A1" horiz-adv-x="870" d="M629 -518H242L274 928H596L629 -518ZM435 1552Q524 1552 589 1488T655 1332Q655 1242 590 1178T435 1114Q344 1114 280 1178T215 1332Q215 1393 245 1443T325 1522T435 1552Z" />
<glyph unicode="&#xa2;" glyph-name="uni00A2" horiz-adv-x="1626" d="M768 0V2048H932V0H768ZM856 231Q626 231 462 332T209 611T120 1023Q120 1258 210 1437T464 1716T854 1817Q1041 1817 1185 1749T1416 1556T1514 1265H1168Q1147 1377 1069 1451T859 1525Q748
1525 664 1466T534 1295T487 1029Q487 872 533 760T662 587T859 526Q939 526 1002 556T1109 645T1168 786H1514Q1501 623 1418 498T1192 302T856 231Z" />
<glyph unicode="&#xa3;" glyph-name="uni00A3" horiz-adv-x="1853" d="M1638 0H194V311H1638V0ZM1230 809H187V1112H1230V809ZM756 1455L788 598Q794 465 745 369T571 210L307 311Q356 318 382 362T417 466T424 582L394 1455Q387 1658 471 1796T702 2005T1025
2076Q1177 2076 1297 2030T1500 1902T1621 1712T1646 1479L1299 1508Q1306 1599 1270 1657T1170 1743T1034 1771Q960 1771 897 1737T795 1633T756 1455Z" />
<glyph unicode="&#xa4;" glyph-name="uni00A4" horiz-adv-x="2114" d="M1055 -28Q883 -28 732 37T465 221T286 496T222 836Q221 1019 285 1175T465 1449T731 1631T1055 1696Q1227 1696 1378 1631T1643 1449T1823 1176T1890 836Q1889 653 1824 496T1644 221T1378
38T1055 -28ZM1055 219Q1177 219 1283 267T1470 399T1596 596T1642 836Q1642 1009 1563 1148T1351 1370T1055 1453Q891 1453 757 1371T544 1149T466 836Q465 665 544 525T757 302T1055 219ZM1654 1262L1474 1450L1754 1734L1939 1546L1654 1262ZM1754 -30L1474
254L1654 438L1939 158L1754 -30ZM361 -30L180 158L461 438L646 254L361 -30ZM461 1262L180 1546L361 1734L646 1450L461 1262Z" />
<glyph unicode="&#xa5;" glyph-name="uni00A5" horiz-adv-x="1589" d="M428 2048L885 980L626 806L40 2048H428ZM707 986L1161 2048H1549L962 806L707 986ZM974 1078V0H606V1078H974ZM1394 1044V819H166V1044H1394ZM1394 648V423H166V648H1394Z" />
<glyph unicode="&#xa6;" glyph-name="uni00A6" horiz-adv-x="897" d="M285 565H612V-384H285V565ZM612 2048V1103H285V2048H612Z" />
<glyph unicode="&#xa7;" glyph-name="uni00A7" horiz-adv-x="1630" d="M1360 1548H1034Q1034 1642 978 1705T804 1768Q739 1768 690 1747T613 1688T586 1602Q586 1550 617 1506T695 1430T784 1377L1169 1182Q1208 1163 1263 1129T1369 1040T1451 909T1477 728Q1472
648 1430 585T1330 481T1216 422L1213 418Q1293 348 1333 259T1374 62Q1374 -92 1298 -198T1094 -359T810 -414Q634 -414 499 -348T289 -162T213 124H541Q540 12 614 -48T813 -105Q901 -104 972 -64T1045 62Q1045 122 1013 164T936 236T850 287L465 478Q425 497
370 532T264 622T181 754T155 936Q160 1016 199 1079T297 1184T418 1244V1249Q346 1319 302 1405T258 1602Q258 1738 328 1845T521 2014T804 2076Q972 2076 1097 2008T1291 1821T1360 1548ZM1170 714Q1174 756 1154 793T1094 863T1000 921L646 1098Q608 1117 566
1102T493 1047T460 950Q455 883 503 832T633 741L979 570Q1014 552 1057 566T1134 619T1170 714Z" />
<glyph unicode="&#xa8;" glyph-name="uni00A8" horiz-adv-x="1558" d="M480 1762Q401 1762 344 1818T286 1950Q286 2030 343 2084T480 2139Q561 2139 616 2085T672 1950Q672 1874 617 1818T480 1762ZM1080 1762Q1001 1762 944 1818T886 1950Q886 2030 943 2084T1080
2139Q1161 2139 1216 2085T1272 1950Q1272 1874 1217 1818T1080 1762Z" />
<glyph unicode="&#xa9;" glyph-name="uni00A9" horiz-adv-x="2576" d="M722 1024Q722 1182 799 1312T1007 1520T1296 1598Q1435 1598 1552 1538T1745 1374T1839 1139H1560Q1543 1224 1468 1277T1296 1331Q1212 1331 1143 1290T1032 1179T990 1025Q990 940 1031
871T1142 759T1296 717Q1393 717 1462 770T1548 909H1827Q1810 778 1737 674T1549 510T1296 450Q1138 450 1008 527T800 735T722 1024ZM1288 -32Q1070 -32 879 50T542 277T314 614T232 1024Q233 1243 315 1434T543 1770T879 1998T1288 2080Q1507 2080 1698 1998T2034
1771T2261 1434T2344 1024Q2345 805 2263 614T2036 278T1699 50T1288 -32ZM1288 267Q1445 267 1583 326T1824 488T1986 729T2045 1023Q2044 1180 1986 1318T1823 1559T1582 1722T1288 1781Q1132 1781 995 1722T754 1559T591 1318T531 1023Q531 868 589 731T752
489T993 326T1288 267Z" />
<glyph unicode="&#xaa;" glyph-name="uni00AA" horiz-adv-x="1336" d="M838 1184V1652Q838 1737 799 1782T675 1828Q584 1828 533 1793T482 1692L239 1710Q239 1850 358 1941T675 2032Q859 2032 971 1937T1083 1652V1220Q1083 1159 1090 1097T1121 970H872Q857
1017 848 1072T838 1184ZM900 1582V1422H697Q576 1422 520 1376T464 1270Q464 1215 503 1183T627 1150Q684 1150 742 1175T840 1237T880 1308L904 1146Q873 1079 791 1016T566 952Q398 952 308 1037T217 1264Q217 1417 336 1499T697 1582H900Z" />
<glyph unicode="&#xab;" glyph-name="uni00AB" horiz-adv-x="1682" d="M902 220H576L172 820V840H518L902 220ZM902 1448L518 828H172V848L576 1448H902ZM1512 220H1186L782 820V840H1128L1512 220ZM1512 1448L1128 828H782V848L1186 1448H1512Z" />
<glyph unicode="&#xac;" glyph-name="uni00AC" horiz-adv-x="1595" d="M1386 1108V872H215V1108H1386ZM1386 1000V516H1105V1000H1386Z" />
<glyph unicode="&#xad;" glyph-name="uni00AD" horiz-adv-x="1312" d="M1117 1002V704H195V1002H1117Z" />
<glyph unicode="&#xae;" glyph-name="uni00AE" horiz-adv-x="1875" d="M651 916V1654H1016Q1078 1654 1134 1627T1226 1545T1262 1412Q1262 1333 1225 1278T1130 1193T1007 1164H752V1297H963Q1002 1297 1035 1326T1068 1412Q1068 1472 1035 1496T966 1520H833V916H651ZM1114
1259L1288 916H1088L923 1259H1114ZM938 476Q772 476 627 538T372 710T200 965T138 1276Q138 1442 200 1587T372 1842T627 2014T938 2076Q1104 2076 1249 2014T1504 1842T1676 1587T1738 1276Q1738 1110 1676 965T1504 710T1249 538T938 476ZM938 681Q1102 681
1237 761T1452 976T1533 1276Q1533 1440 1453 1575T1237 1791T938 1871Q773 1871 638 1791T423 1576T342 1276Q342 1112 422 977T638 762T938 681Z" />
<glyph unicode="&#xaf;" glyph-name="uni00AF" horiz-adv-x="1482" d="M1222 2048V1827H260V2048H1222Z" />
<glyph unicode="&#xb0;" glyph-name="uni00B0" horiz-adv-x="1290" d="M645 1101Q512 1101 403 1165T229 1339T164 1582Q164 1714 229 1823T403 1997T645 2062Q778 2062 887 1998T1061 1824T1126 1582Q1126 1449 1061 1340T887 1166T645 1101ZM645 1357Q707 1357
758 1387T839 1468T870 1582Q870 1644 840 1695T758 1776T645 1806Q583 1806 532 1776T451 1695T420 1582Q420 1520 450 1469T531 1387T645 1357Z" />
<glyph unicode="&#xb1;" glyph-name="uni00B1" horiz-adv-x="1894" d="M263 83V384H1631V83H263ZM263 907V1202H1631V907H263ZM790 541V1568H1104V541H790Z" />
<glyph unicode="&#xb2;" glyph-name="uni00B2" horiz-adv-x="1190" d="M129 1024V1223L610 1622Q670 1672 713 1713T779 1795T802 1884Q802 1962 740 2006T588 2050Q492 2050 434 2002T375 1867H110Q110 2053 245 2160T592 2268Q735 2268 841 2218T1007 2081T1066
1888Q1066 1802 1031 1729T922 1582T733 1423L527 1259V1250H1088V1024H129Z" />
<glyph unicode="&#xb3;" glyph-name="uni00B3" horiz-adv-x="1234" d="M614 1008Q467 1008 352 1054T171 1184T101 1376H383Q387 1312 452 1275T614 1238Q713 1238 779 1279T846 1391Q846 1460 777 1504T589 1548H462V1753H589Q688 1753 751 1794T814 1903Q814
1968 760 2009T618 2050Q526 2050 462 2010T394 1906H129Q131 2013 196 2094T372 2222T619 2268Q758 2268 862 2222T1025 2097T1083 1920Q1083 1812 1009 1746T829 1664V1654Q975 1638 1054 1563T1134 1372Q1134 1266 1067 1184T883 1055T614 1008Z" />
<glyph unicode="&#xb4;" glyph-name="uni00B4" horiz-adv-x="1400" d="M542 1738L766 2195H1120L813 1738H542Z" />
<glyph unicode="&#xb5;" glyph-name="uni00B5" horiz-adv-x="1835" d="M186 -563V1536H548V646Q548 542 594 463T724 340T918 296Q1028 296 1111 340T1241 464T1287 646V1536H1650V0H1298V222H1286Q1235 115 1136 57T918 -1Q798 -1 700 57T549 222H537V-563H186Z" />
<glyph unicode="&#xb6;" glyph-name="uni00B6" horiz-adv-x="1707" d="M1381 1756H949V760H831Q608 760 455 843T222 1072T142 1404Q142 1588 221 1733T454 1963T831 2048H1381V1756ZM1197 0V2048H1506V0H1197Z" />
<glyph unicode="&#xb7;" glyph-name="uni00B7" horiz-adv-x="818" d="M409 677Q318 677 253 741T189 897Q188 987 253 1051T409 1115Q497 1115 562 1051T629 897Q628 836 598 786T518 707T409 677Z" />
<glyph unicode="&#xb8;" glyph-name="uni00B8" horiz-adv-x="954" d="M381 8H577L561 -77Q655 -91 720 -149T786 -318Q787 -460 659 -546T294 -632L290 -454Q405 -454 473 -424T542 -327Q544 -263 495 -234T338 -193L381 8Z" />
<glyph unicode="&#xb9;" glyph-name="uni00B9" horiz-adv-x="896" d="M416 1024V1993H407L106 1800V2046L427 2252H680V1024H416Z" />
<glyph unicode="&#xba;" glyph-name="uni00BA" horiz-adv-x="1331" d="M180 1436V1542Q180 1685 239 1795T408 1969T666 2032Q891 2032 1021 1895T1151 1542V1436Q1151 1294 1093 1185T927 1013T670 950Q443 950 312 1086T180 1436ZM425 1542V1436Q425 1313 486
1233T670 1152Q789 1152 847 1232T906 1436V1542Q906 1662 847 1745T666 1828Q546 1828 486 1745T425 1542Z" />
<glyph unicode="&#xbb;" glyph-name="uni00BB" horiz-adv-x="1688" d="M158 220L542 840H888V820L484 220H158ZM158 1448H484L888 848V828H542L158 1448ZM774 220L1158 840H1504V820L1100 220H774ZM774 1448H1100L1504 848V828H1158L774 1448Z" />
<glyph unicode="&#xbc;" glyph-name="uni00BC" horiz-adv-x="2480" d="M353 0L1761 2048H2012L604 0H353ZM360 1216V2056H352L88 1886V2123L371 2304H613V1216H360ZM1417 182V384L1930 1088H2104V814H2002L1678 395V388H2407V182H1417ZM2007 0V243L2011 334V1088H2250V0H2007Z"
/>
<glyph unicode="&#xbd;" glyph-name="uni00BD" horiz-adv-x="2589" d="M353 0L1761 2048H2012L604 0H353ZM360 1216V2056H352L88 1886V2123L371 2304H613V1216H360ZM1629 0V184L2067 533Q2146 597 2191 646T2236 757Q2236 825 2181 863T2044 902Q1961 902 1908
861T1854 744H1611Q1611 909 1733 1006T2049 1104Q2245 1104 2361 1005T2478 761Q2478 684 2447 619T2348 489T2176 350L1997 218V208H2499V0H1629Z" />
<glyph unicode="&#xbe;" glyph-name="uni00BE" horiz-adv-x="2702" d="M576 0L1984 2048H2235L827 0H576ZM1639 182V384L2152 1088H2326V814H2224L1900 395V388H2629V182H1639ZM2229 0V243L2233 334V1088H2472V0H2229ZM556 1200Q418 1200 314 1243T150 1362T90
1532H350Q352 1477 409 1444T551 1410Q641 1410 700 1447T760 1542Q760 1601 699 1638T533 1675H416V1863H533Q620 1863 676 1899T733 1992Q733 2047 685 2083T554 2120Q477 2120 420 2086T361 1996H114Q116 2091 175 2164T334 2278T559 2320Q685 2320 780 2279T928
2167T982 2010Q982 1919 918 1859T751 1784V1774Q885 1760 955 1693T1026 1525Q1026 1430 965 1357T798 1242T556 1200Z" />
<glyph unicode="&#xbf;" glyph-name="uni00BF" horiz-adv-x="1532" d="M1000 919V893Q999 713 966 606T870 433T719 312Q659 274 610 229T533 127T505 0Q505 -79 542 -137T641 -227T781 -259Q852 -259 915 -229T1021 -137T1067 18H1423Q1418 -172 1331 -299T1099
-491T779 -555Q588 -555 443 -488T216 -298T134 -6Q134 110 170 199T274 359T433 484Q515 534 566 588T641 714T667 893V919H1000ZM826 1543Q916 1543 981 1479T1046 1323Q1046 1233 981 1169T826 1105Q737 1105 672 1169T606 1323Q606 1384 636 1434T717 1513T826
1543Z" />
<glyph unicode="&#xc0;" glyph-name="uni00C0" horiz-adv-x="2038" d="M465 0H69L790 2048H1248L1970 0H1574L1027 1628H1011L465 0ZM478 803H1558V505H478V803ZM887 2250L580 2707H935L1158 2250H887Z" />
<glyph unicode="&#xc1;" glyph-name="uni00C1" horiz-adv-x="2038" d="M465 0H69L790 2048H1248L1970 0H1574L1027 1628H1011L465 0ZM478 803H1558V505H478V803ZM880 2250L1104 2707H1458L1151 2250H880Z" />
<glyph unicode="&#xc2;" glyph-name="uni00C2" horiz-adv-x="2038" d="M465 0H69L790 2048H1248L1970 0H1574L1027 1628H1011L465 0ZM478 803H1558V505H478V803ZM1222 2232L1019 2488L816 2232H499V2246L878 2678H1161L1539 2246V2232H1222Z" />
<glyph unicode="&#xc3;" glyph-name="uni00C3" horiz-adv-x="2038" d="M465 0H69L790 2048H1248L1970 0H1574L1027 1628H1011L465 0ZM478 803H1558V505H478V803ZM726 2250L506 2255Q506 2433 598 2534T825 2635Q890 2635 938 2614T1027 2564T1106 2515T1192 2493Q1249
2493 1282 2536T1317 2646L1532 2637Q1531 2458 1439 2360T1214 2260Q1141 2260 1092 2281T1007 2331T933 2380T846 2402Q793 2402 760 2360T726 2250Z" />
<glyph unicode="&#xc4;" glyph-name="uni00C4" horiz-adv-x="2038" d="M465 0H69L790 2048H1248L1970 0H1574L1027 1628H1011L465 0ZM478 803H1558V505H478V803ZM720 2274Q641 2274 584 2330T526 2462Q526 2542 583 2596T720 2651Q801 2651 856 2597T912 2462Q912
2386 857 2330T720 2274ZM1320 2274Q1241 2274 1184 2330T1126 2462Q1126 2542 1183 2596T1320 2651Q1401 2651 1456 2597T1512 2462Q1512 2386 1457 2330T1320 2274Z" />
<glyph unicode="&#xc5;" glyph-name="uni00C5" horiz-adv-x="2038" d="M465 0H69L790 2048H1248L1970 0H1574L1027 1628H1011L465 0ZM478 803H1558V505H478V803ZM1019 2174Q894 2174 806 2261T717 2471Q717 2553 757 2620T867 2728T1019 2768Q1103 2768 1171 2728T1280
2621T1321 2471Q1321 2389 1281 2322T1172 2214T1019 2174ZM1019 2335Q1077 2336 1117 2375T1157 2471Q1157 2527 1118 2567T1019 2606Q961 2606 922 2567T882 2471Q882 2415 921 2375T1019 2335Z" />
<glyph unicode="&#xc6;" glyph-name="uni00C6" horiz-adv-x="2863" d="M69 0L984 2048H2686V1737H1725V1181H2617V870H1725V311H2694V0H1354V1690H1209L477 0H69ZM527 505V803H1559V505H527Z" />
<glyph unicode="&#xc7;" glyph-name="uni00C7" horiz-adv-x="2094" d="M1955 1357H1581Q1565 1449 1522 1520T1415 1642T1270 1717T1094 1743Q927 1743 798 1660T596 1416T523 1024Q523 789 596 629T798 387T1093 305Q1185 305 1265 329T1410 402T1519 520T1581
680L1955 678Q1934 532 1865 404T1683 179T1421 27T1088 -28Q818 -28 606 97T272 458T150 1024Q150 1355 273 1590T608 1951T1088 2076Q1259 2076 1406 2028T1668 1888T1857 1662T1955 1357ZM983 2H1179L1163 -83Q1257 -97 1322 -155T1388 -324Q1389 -466 1261
-552T896 -638L892 -460Q1007 -460 1075 -430T1144 -333Q1146 -269 1097 -240T940 -199L983 2Z" />
<glyph unicode="&#xc8;" glyph-name="uni00C8" horiz-adv-x="1711" d="M202 0V2048H1534V1737H573V1181H1465V870H573V311H1542V0H202ZM736 2250L429 2707H784L1007 2250H736Z" />
<glyph unicode="&#xc9;" glyph-name="uni00C9" horiz-adv-x="1711" d="M202 0V2048H1534V1737H573V1181H1465V870H573V311H1542V0H202ZM730 2250L954 2707H1308L1001 2250H730Z" />
<glyph unicode="&#xca;" glyph-name="uni00CA" horiz-adv-x="1711" d="M202 0V2048H1534V1737H573V1181H1465V870H573V311H1542V0H202ZM1072 2232L869 2488L666 2232H349V2246L728 2678H1011L1389 2246V2232H1072Z" />
<glyph unicode="&#xcb;" glyph-name="uni00CB" horiz-adv-x="1711" d="M202 0V2048H1534V1737H573V1181H1465V870H573V311H1542V0H202ZM570 2274Q491 2274 434 2330T376 2462Q376 2542 433 2596T570 2651Q651 2651 706 2597T762 2462Q762 2386 707 2330T570 2274ZM1170
2274Q1091 2274 1034 2330T976 2462Q976 2542 1033 2596T1170 2651Q1251 2651 1306 2597T1362 2462Q1362 2386 1307 2330T1170 2274Z" />
<glyph unicode="&#xcc;" glyph-name="uni00CC" horiz-adv-x="774" d="M573 2048V0H202V2048H573ZM256 2250L-51 2707H304L527 2250H256Z" />
<glyph unicode="&#xcd;" glyph-name="uni00CD" horiz-adv-x="774" d="M573 2048V0H202V2048H573ZM249 2250L473 2707H827L520 2250H249Z" />
<glyph unicode="&#xce;" glyph-name="uni00CE" horiz-adv-x="774" d="M573 2048V0H202V2048H573ZM591 2232L388 2488L185 2232H-132V2246L247 2678H530L908 2246V2232H591Z" />
<glyph unicode="&#xcf;" glyph-name="uni00CF" horiz-adv-x="774" d="M573 2048V0H202V2048H573ZM89 2274Q10 2274 -47 2330T-105 2462Q-105 2542 -48 2596T89 2651Q170 2651 225 2597T281 2462Q281 2386 226 2330T89 2274ZM689 2274Q610 2274 553 2330T495 2462Q495
2542 552 2596T689 2651Q770 2651 825 2597T881 2462Q881 2386 826 2330T689 2274Z" />
<glyph unicode="&#xd0;" glyph-name="uni00D0" horiz-adv-x="2040" d="M896 0H377V321H878Q1092 321 1235 399T1450 634T1522 1026Q1522 1261 1450 1416T1238 1649T889 1727H366V2048H910Q1215 2048 1434 1926T1772 1574T1890 1026Q1890 706 1772 476T1431 123T896
0ZM573 2048V0H202V2048H573ZM-94 958V1186H865V958H-94Z" />
<glyph unicode="&#xd1;" glyph-name="uni00D1" horiz-adv-x="2086" d="M1885 2048V0H1555L590 1395H573V0H202V2048H534L1498 652H1516V2048H1885ZM750 2235L531 2240Q531 2418 623 2519T850 2620Q915 2620 963 2599T1051 2549T1131 2500T1217 2478Q1274 2478
1307 2521T1342 2631L1557 2622Q1556 2443 1464 2345T1238 2245Q1166 2244 1117 2266T1032 2316T958 2365T871 2387Q818 2387 784 2345T750 2235Z" />
<glyph unicode="&#xd2;" glyph-name="uni00D2" horiz-adv-x="2182" d="M2032 1024Q2032 693 1909 458T1573 97T1091 -28Q822 -28 610 97T274 458T150 1024Q150 1355 273 1590T609 1951T1091 2076Q1360 2076 1572 1951T1908 1591T2032 1024ZM1659 1024Q1659 1257
1587 1417T1386 1660T1091 1743Q924 1743 796 1661T596 1418T523 1024Q523 791 595 631T796 388T1091 305Q1258 305 1386 387T1586 630T1659 1024ZM959 2250L652 2707H1007L1230 2250H959Z" />
<glyph unicode="&#xd3;" glyph-name="uni00D3" horiz-adv-x="2182" d="M2032 1024Q2032 693 1909 458T1573 97T1091 -28Q822 -28 610 97T274 458T150 1024Q150 1355 273 1590T609 1951T1091 2076Q1360 2076 1572 1951T1908 1591T2032 1024ZM1659 1024Q1659 1257
1587 1417T1386 1660T1091 1743Q924 1743 796 1661T596 1418T523 1024Q523 791 595 631T796 388T1091 305Q1258 305 1386 387T1586 630T1659 1024ZM952 2250L1176 2707H1530L1223 2250H952Z" />
<glyph unicode="&#xd4;" glyph-name="uni00D4" horiz-adv-x="2182" d="M2032 1024Q2032 693 1909 458T1573 97T1091 -28Q822 -28 610 97T274 458T150 1024Q150 1355 273 1590T609 1951T1091 2076Q1360 2076 1572 1951T1908 1591T2032 1024ZM1659 1024Q1659 1257
1587 1417T1386 1660T1091 1743Q924 1743 796 1661T596 1418T523 1024Q523 791 595 631T796 388T1091 305Q1258 305 1386 387T1586 630T1659 1024ZM1294 2232L1091 2488L888 2232H571V2246L950 2678H1233L1611 2246V2232H1294Z" />
<glyph unicode="&#xd5;" glyph-name="uni00D5" horiz-adv-x="2182" d="M2032 1024Q2032 693 1909 458T1573 97T1091 -28Q822 -28 610 97T274 458T150 1024Q150 1355 273 1590T609 1951T1091 2076Q1360 2076 1572 1951T1908 1591T2032 1024ZM1659 1024Q1659 1257
1587 1417T1386 1660T1091 1743Q924 1743 796 1661T596 1418T523 1024Q523 791 595 631T796 388T1091 305Q1258 305 1386 387T1586 630T1659 1024ZM798 2250L578 2255Q578 2433 670 2534T897 2635Q962 2635 1010 2614T1099 2564T1178 2515T1264 2493Q1321 2493
1354 2536T1389 2646L1604 2637Q1603 2458 1511 2360T1286 2260Q1213 2260 1164 2281T1079 2331T1005 2380T918 2402Q865 2402 832 2360T798 2250Z" />
<glyph unicode="&#xd6;" glyph-name="uni00D6" horiz-adv-x="2182" d="M2032 1024Q2032 693 1909 458T1573 97T1091 -28Q822 -28 610 97T274 458T150 1024Q150 1355 273 1590T609 1951T1091 2076Q1360 2076 1572 1951T1908 1591T2032 1024ZM1659 1024Q1659 1257
1587 1417T1386 1660T1091 1743Q924 1743 796 1661T596 1418T523 1024Q523 791 595 631T796 388T1091 305Q1258 305 1386 387T1586 630T1659 1024ZM792 2274Q713 2274 656 2330T598 2462Q598 2542 655 2596T792 2651Q873 2651 928 2597T984 2462Q984 2386 929 2330T792
2274ZM1392 2274Q1313 2274 1256 2330T1198 2462Q1198 2542 1255 2596T1392 2651Q1473 2651 1528 2597T1584 2462Q1584 2386 1529 2330T1392 2274Z" />
<glyph unicode="&#xd7;" glyph-name="uni00D7" horiz-adv-x="1894" d="M1421 114L248 1285L474 1512L1646 339L1421 114ZM474 114L248 339L1421 1512L1646 1285L474 114Z" />
<glyph unicode="&#xd8;" glyph-name="uni00D8" horiz-adv-x="2182" d="M453 -94L272 30L1725 2138L1906 2014L453 -94ZM2032 1024Q2032 693 1909 458T1573 97T1091 -28Q822 -28 610 97T274 458T150 1024Q150 1355 273 1590T609 1951T1091 2076Q1360 2076 1572
1951T1908 1591T2032 1024ZM1659 1024Q1659 1257 1587 1417T1386 1660T1091 1743Q924 1743 796 1661T596 1418T523 1024Q523 791 595 631T796 388T1091 305Q1258 305 1386 387T1586 630T1659 1024Z" />
<glyph unicode="&#xd9;" glyph-name="uni00D9" horiz-adv-x="2066" d="M1493 2048H1864V710Q1864 490 1761 323T1470 63T1033 -31Q782 -31 595 62T305 323T202 710V2048H573V741Q573 613 629 513T789 357T1033 300Q1174 300 1277 356T1437 513T1493 741V2048ZM900
2250L593 2707H948L1171 2250H900Z" />
<glyph unicode="&#xda;" glyph-name="uni00DA" horiz-adv-x="2066" d="M1493 2048H1864V710Q1864 490 1761 323T1470 63T1033 -31Q782 -31 595 62T305 323T202 710V2048H573V741Q573 613 629 513T789 357T1033 300Q1174 300 1277 356T1437 513T1493 741V2048ZM894
2250L1118 2707H1472L1165 2250H894Z" />
<glyph unicode="&#xdb;" glyph-name="uni00DB" horiz-adv-x="2066" d="M1493 2048H1864V710Q1864 490 1761 323T1470 63T1033 -31Q782 -31 595 62T305 323T202 710V2048H573V741Q573 613 629 513T789 357T1033 300Q1174 300 1277 356T1437 513T1493 741V2048ZM1236
2232L1033 2488L830 2232H513V2246L892 2678H1175L1553 2246V2232H1236Z" />
<glyph unicode="&#xdc;" glyph-name="uni00DC" horiz-adv-x="2066" d="M1493 2048H1864V710Q1864 490 1761 323T1470 63T1033 -31Q782 -31 595 62T305 323T202 710V2048H573V741Q573 613 629 513T789 357T1033 300Q1174 300 1277 356T1437 513T1493 741V2048ZM734
2274Q655 2274 598 2330T540 2462Q540 2542 597 2596T734 2651Q815 2651 870 2597T926 2462Q926 2386 871 2330T734 2274ZM1334 2274Q1255 2274 1198 2330T1140 2462Q1140 2542 1197 2596T1334 2651Q1415 2651 1470 2597T1526 2462Q1526 2386 1471 2330T1334 2274Z"
/>
<glyph unicode="&#xdd;" glyph-name="uni00DD" horiz-adv-x="1984" d="M62 2048H481L982 1142H1002L1503 2048H1922L1177 764V0H807V764L62 2048ZM853 2250L1077 2707H1431L1124 2250H853Z" />
<glyph unicode="&#xde;" glyph-name="uni00DE" horiz-adv-x="1851" d="M194 2048H565V0H194V2048ZM366 1656H897Q1134 1656 1298 1575T1547 1355T1632 1042Q1632 868 1547 730T1298 511T897 430H366V726H897Q1026 726 1110 766T1236 876T1278 1038Q1278 1130 1237
1203T1111 1317T897 1359H366V1656Z" />
<glyph unicode="&#xdf;" glyph-name="uni00DF" horiz-adv-x="1818" d="M202 0V1513Q202 1688 285 1814T518 2008T869 2076Q1058 2076 1214 2013T1462 1829T1554 1530Q1554 1366 1472 1251T1250 1094V1072Q1448 1057 1568 918T1687 564Q1687 390 1607 264T1383
69T1050 0H795V305H1006Q1102 305 1173 341T1283 441T1322 591Q1321 724 1226 807T969 890H803V1186H917Q999 1186 1059 1226T1152 1333T1186 1477Q1186 1600 1105 1682T879 1765Q740 1765 652 1684T564 1471V0H202Z" />
<glyph unicode="&#xe0;" glyph-name="uni00E0" horiz-adv-x="1618" d="M628 -31Q482 -31 366 21T182 177T114 431Q114 561 162 646T293 782T480 859T697 898Q832 912 916 923T1038 959T1077 1036V1042Q1077 1155 1010 1217T817 1279Q684 1279 607 1221T502 1084L164
1132Q204 1272 296 1366T521 1508T815 1556Q926 1556 1036 1530T1237 1445T1383 1283T1439 1028V0H1091V211H1079Q1046 147 987 92T838 3T628 -31ZM722 235Q831 235 911 278T1034 394T1078 551V732Q1061 718 1021 706T930 685T831 669T746 657Q665 646 601 621T500
552T463 437Q463 337 536 286T722 235ZM955 1738L648 2195H1003L1226 1738H955Z" />
<glyph unicode="&#xe1;" glyph-name="uni00E1" horiz-adv-x="1618" d="M628 -31Q482 -31 366 21T182 177T114 431Q114 561 162 646T293 782T480 859T697 898Q832 912 916 923T1038 959T1077 1036V1042Q1077 1155 1010 1217T817 1279Q684 1279 607 1221T502 1084L164
1132Q204 1272 296 1366T521 1508T815 1556Q926 1556 1036 1530T1237 1445T1383 1283T1439 1028V0H1091V211H1079Q1046 147 987 92T838 3T628 -31ZM722 235Q831 235 911 278T1034 394T1078 551V732Q1061 718 1021 706T930 685T831 669T746 657Q665 646 601 621T500
552T463 437Q463 337 536 286T722 235ZM692 1738L916 2195H1270L963 1738H692Z" />
<glyph unicode="&#xe2;" glyph-name="uni00E2" horiz-adv-x="1618" d="M628 -31Q482 -31 366 21T182 177T114 431Q114 561 162 646T293 782T480 859T697 898Q832 912 916 923T1038 959T1077 1036V1042Q1077 1155 1010 1217T817 1279Q684 1279 607 1221T502 1084L164
1132Q204 1272 296 1366T521 1508T815 1556Q926 1556 1036 1530T1237 1445T1383 1283T1439 1028V0H1091V211H1079Q1046 147 987 92T838 3T628 -31ZM722 235Q831 235 911 278T1034 394T1078 551V732Q1061 718 1021 706T930 685T831 669T746 657Q665 646 601 621T500
552T463 437Q463 337 536 286T722 235ZM1034 1720L831 1976L628 1720H311V1734L690 2166H973L1351 1734V1720H1034Z" />
<glyph unicode="&#xe3;" glyph-name="uni00E3" horiz-adv-x="1618" d="M628 -31Q482 -31 366 21T182 177T114 431Q114 561 162 646T293 782T480 859T697 898Q832 912 916 923T1038 959T1077 1036V1042Q1077 1155 1010 1217T817 1279Q684 1279 607 1221T502 1084L164
1132Q204 1272 296 1366T521 1508T815 1556Q926 1556 1036 1530T1237 1445T1383 1283T1439 1028V0H1091V211H1079Q1046 147 987 92T838 3T628 -31ZM722 235Q831 235 911 278T1034 394T1078 551V732Q1061 718 1021 706T930 685T831 669T746 657Q665 646 601 621T500
552T463 437Q463 337 536 286T722 235ZM537 1723L318 1728Q318 1906 410 2007T637 2108Q702 2108 750 2087T838 2037T918 1988T1004 1966Q1061 1966 1094 2009T1129 2119L1344 2110Q1343 1931 1251 1833T1025 1733Q953 1732 904 1754T819 1804T745 1853T658 1875Q605
1875 571 1833T537 1723Z" />
<glyph unicode="&#xe4;" glyph-name="uni00E4" horiz-adv-x="1618" d="M628 -31Q482 -31 366 21T182 177T114 431Q114 561 162 646T293 782T480 859T697 898Q832 912 916 923T1038 959T1077 1036V1042Q1077 1155 1010 1217T817 1279Q684 1279 607 1221T502 1084L164
1132Q204 1272 296 1366T521 1508T815 1556Q926 1556 1036 1530T1237 1445T1383 1283T1439 1028V0H1091V211H1079Q1046 147 987 92T838 3T628 -31ZM722 235Q831 235 911 278T1034 394T1078 551V732Q1061 718 1021 706T930 685T831 669T746 657Q665 646 601 621T500
552T463 437Q463 337 536 286T722 235ZM532 1762Q453 1762 396 1818T338 1950Q338 2030 395 2084T532 2139Q613 2139 668 2085T724 1950Q724 1874 669 1818T532 1762ZM1132 1762Q1053 1762 996 1818T938 1950Q938 2030 995 2084T1132 2139Q1213 2139 1268 2085T1324
1950Q1324 1874 1269 1818T1132 1762Z" />
<glyph unicode="&#xe5;" glyph-name="uni00E5" horiz-adv-x="1618" d="M628 -31Q482 -31 366 21T182 177T114 431Q114 561 162 646T293 782T480 859T697 898Q832 912 916 923T1038 959T1077 1036V1042Q1077 1155 1010 1217T817 1279Q684 1279 607 1221T502 1084L164
1132Q204 1272 296 1366T521 1508T815 1556Q926 1556 1036 1530T1237 1445T1383 1283T1439 1028V0H1091V211H1079Q1046 147 987 92T838 3T628 -31ZM722 235Q831 235 911 278T1034 394T1078 551V732Q1061 718 1021 706T930 685T831 669T746 657Q665 646 601 621T500
552T463 437Q463 337 536 286T722 235ZM831 1703Q734 1703 655 1747T529 1867T482 2035Q482 2128 528 2205T654 2328T831 2374Q928 2374 1007 2328T1132 2205T1178 2035Q1178 1942 1132 1867T1007 1748T831 1703ZM831 1873Q904 1873 951 1922T999 2035Q999 2101
952 2152T831 2202Q759 2202 711 2152T663 2035Q663 1972 711 1922T831 1873Z" />
<glyph unicode="&#xe6;" glyph-name="uni00E6" horiz-adv-x="2583" d="M1798 -30Q1571 -30 1408 73T1192 359L1198 1216Q1286 1385 1427 1470T1762 1556Q1903 1556 2029 1511T2254 1370T2407 1129T2463 780V669H1225V913H2116Q2115 1017 2071 1098T1949 1227T1766
1274Q1655 1274 1571 1221T1441 1080T1394 891V678Q1394 544 1443 449T1580 303T1786 252Q1864 252 1928 274T2039 341T2110 450L2449 412Q2417 278 2327 179T2102 25T1798 -30ZM722 235Q831 235 911 278T1034 394T1078 551V732Q1061 718 1021 706T930 685T831
669T746 657Q665 646 601 621T500 552T463 437Q463 337 536 286T722 235ZM644 -31Q490 -31 370 21T182 177T114 431Q114 561 162 646T294 782T481 860T697 898Q833 912 916 924T1038 960T1077 1036V1042Q1077 1155 1010 1217T817 1279Q685 1279 607 1221T502 1084L164
1132Q204 1272 296 1366T521 1508T820 1556Q888 1556 960 1544T1101 1500T1225 1414T1310 1273L1246 261H1221Q1184 175 1098 109T894 6T644 -31Z" />
<glyph unicode="&#xe7;" glyph-name="uni00E7" horiz-adv-x="1626" d="M856 -30Q626 -30 462 71T209 350T120 762Q120 996 210 1175T464 1455T854 1556Q1041 1556 1185 1488T1416 1295T1514 1004H1168Q1147 1115 1069 1189T859 1264Q748 1264 664 1205T534 1034T487
768Q487 611 533 499T662 326T859 265Q939 265 1002 295T1109 384T1168 525H1514Q1501 362 1418 237T1192 41T856 -30ZM752 8H948L932 -77Q1026 -91 1091 -149T1157 -318Q1158 -460 1030 -546T665 -632L661 -454Q776 -454 844 -424T913 -327Q915 -263 866 -234T709
-193L752 8Z" />
<glyph unicode="&#xe8;" glyph-name="uni00E8" horiz-adv-x="1669" d="M866 -30Q635 -30 468 66T210 340T120 759Q120 996 210 1175T464 1455T847 1556Q989 1556 1115 1511T1339 1370T1493 1129T1549 780V669H290V913H1202Q1201 1017 1157 1098T1035 1227T852
1274Q741 1274 657 1221T527 1081T479 891V678Q479 544 528 449T665 303T871 252Q950 252 1014 274T1125 341T1196 450L1534 412Q1502 278 1413 179T1184 25T866 -30ZM960 1738L653 2195H1008L1231 1738H960Z" />
<glyph unicode="&#xe9;" glyph-name="uni00E9" horiz-adv-x="1669" d="M866 -30Q635 -30 468 66T210 340T120 759Q120 996 210 1175T464 1455T847 1556Q989 1556 1115 1511T1339 1370T1493 1129T1549 780V669H290V913H1202Q1201 1017 1157 1098T1035 1227T852
1274Q741 1274 657 1221T527 1081T479 891V678Q479 544 528 449T665 303T871 252Q950 252 1014 274T1125 341T1196 450L1534 412Q1502 278 1413 179T1184 25T866 -30ZM698 1738L922 2195H1276L969 1738H698Z" />
<glyph unicode="&#xea;" glyph-name="uni00EA" horiz-adv-x="1669" d="M866 -30Q635 -30 468 66T210 340T120 759Q120 996 210 1175T464 1455T847 1556Q989 1556 1115 1511T1339 1370T1493 1129T1549 780V669H290V913H1202Q1201 1017 1157 1098T1035 1227T852
1274Q741 1274 657 1221T527 1081T479 891V678Q479 544 528 449T665 303T871 252Q950 252 1014 274T1125 341T1196 450L1534 412Q1502 278 1413 179T1184 25T866 -30ZM1040 1720L837 1976L634 1720H317V1734L696 2166H979L1357 1734V1720H1040Z" />
<glyph unicode="&#xeb;" glyph-name="uni00EB" horiz-adv-x="1669" d="M866 -30Q635 -30 468 66T210 340T120 759Q120 996 210 1175T464 1455T847 1556Q989 1556 1115 1511T1339 1370T1493 1129T1549 780V669H290V913H1202Q1201 1017 1157 1098T1035 1227T852
1274Q741 1274 657 1221T527 1081T479 891V678Q479 544 528 449T665 303T871 252Q950 252 1014 274T1125 341T1196 450L1534 412Q1502 278 1413 179T1184 25T866 -30ZM538 1762Q459 1762 402 1818T344 1950Q344 2030 401 2084T538 2139Q619 2139 674 2085T730 1950Q730
1874 675 1818T538 1762ZM1138 1762Q1059 1762 1002 1818T944 1950Q944 2030 1001 2084T1138 2139Q1219 2139 1274 2085T1330 1950Q1330 1874 1275 1818T1138 1762Z" />
<glyph unicode="&#xec;" glyph-name="uni00EC" horiz-adv-x="734" d="M186 0V1536H548V0H186ZM236 1738L-71 2195H284L507 1738H236Z" />
<glyph unicode="&#xed;" glyph-name="uni00ED" horiz-adv-x="734" d="M186 0V1536H548V0H186ZM229 1738L453 2195H807L500 1738H229Z" />
<glyph unicode="&#xee;" glyph-name="uni00EE" horiz-adv-x="734" d="M186 0V1536H548V0H186ZM571 1720L368 1976L165 1720H-152V1734L227 2166H510L888 1734V1720H571Z" />
<glyph unicode="&#xef;" glyph-name="uni00EF" horiz-adv-x="734" d="M186 0V1536H548V0H186ZM69 1762Q-10 1762 -67 1818T-125 1950Q-125 2030 -68 2084T69 2139Q150 2139 205 2085T261 1950Q261 1874 206 1818T69 1762ZM669 1762Q590 1762 533 1818T475 1950Q475
2030 532 2084T669 2139Q750 2139 805 2085T861 1950Q861 1874 806 1818T669 1762Z" />
<glyph unicode="&#xf0;" glyph-name="uni00F0" horiz-adv-x="1670" d="M1315 1935L417 1485L376 1663L1274 2114L1315 1935ZM830 -32Q615 -32 456 61T208 321T120 704Q120 912 200 1076T420 1334T740 1428Q841 1428 920 1398T1057 1320T1154 1220H1174Q1116 1356
1007 1492T741 1748T386 1958L448 2166Q656 2099 853 1975T1207 1675T1457 1272T1550 776Q1550 527 1462 346T1212 66T830 -32ZM838 256Q957 256 1040 314T1167 475T1210 711Q1210 834 1171 942T1050 1117T838 1185Q715 1185 633 1124T511 957T470 721Q470 592
510 487T631 319T838 256Z" />
<glyph unicode="&#xf1;" glyph-name="uni00F1" horiz-adv-x="1717" d="M548 900V0H186V1536H532V1275H550Q603 1404 719 1480T1008 1556Q1167 1556 1285 1488T1469 1291T1534 978V0H1172V922Q1172 1076 1093 1163T873 1250Q778 1250 705 1209T590 1089T548 900ZM565
1723L346 1728Q346 1906 438 2007T665 2108Q730 2108 778 2087T866 2037T946 1988T1032 1966Q1089 1966 1122 2009T1157 2119L1372 2110Q1371 1931 1279 1833T1053 1733Q981 1732 932 1754T847 1804T773 1853T686 1875Q633 1875 599 1833T565 1723Z" />
<glyph unicode="&#xf2;" glyph-name="uni00F2" horiz-adv-x="1712" d="M856 -30Q631 -30 466 69T211 346T120 762Q120 1000 210 1179T466 1457T856 1556Q1081 1556 1246 1457T1501 1179T1592 762Q1592 524 1502 346T1246 69T856 -30ZM858 260Q980 260 1062 327T1184
509T1225 763Q1225 904 1185 1018T1062 1201T858 1269Q733 1269 651 1201T528 1019T487 763Q487 623 527 509T650 328T858 260ZM724 1738L417 2195H772L995 1738H724Z" />
<glyph unicode="&#xf3;" glyph-name="uni00F3" horiz-adv-x="1712" d="M856 -30Q631 -30 466 69T211 346T120 762Q120 1000 210 1179T466 1457T856 1556Q1081 1556 1246 1457T1501 1179T1592 762Q1592 524 1502 346T1246 69T856 -30ZM858 260Q980 260 1062 327T1184
509T1225 763Q1225 904 1185 1018T1062 1201T858 1269Q733 1269 651 1201T528 1019T487 763Q487 623 527 509T650 328T858 260ZM717 1738L941 2195H1295L988 1738H717Z" />
<glyph unicode="&#xf4;" glyph-name="uni00F4" horiz-adv-x="1712" d="M856 -30Q631 -30 466 69T211 346T120 762Q120 1000 210 1179T466 1457T856 1556Q1081 1556 1246 1457T1501 1179T1592 762Q1592 524 1502 346T1246 69T856 -30ZM858 260Q980 260 1062 327T1184
509T1225 763Q1225 904 1185 1018T1062 1201T858 1269Q733 1269 651 1201T528 1019T487 763Q487 623 527 509T650 328T858 260ZM1059 1720L856 1976L653 1720H336V1734L715 2166H998L1376 1734V1720H1059Z" />
<glyph unicode="&#xf5;" glyph-name="uni00F5" horiz-adv-x="1712" d="M856 -30Q631 -30 466 69T211 346T120 762Q120 1000 210 1179T466 1457T856 1556Q1081 1556 1246 1457T1501 1179T1592 762Q1592 524 1502 346T1246 69T856 -30ZM858 260Q980 260 1062 327T1184
509T1225 763Q1225 904 1185 1018T1062 1201T858 1269Q733 1269 651 1201T528 1019T487 763Q487 623 527 509T650 328T858 260ZM562 1723L343 1728Q343 1906 435 2007T662 2108Q727 2108 775 2087T863 2037T943 1988T1029 1966Q1086 1966 1119 2009T1154 2119L1369
2110Q1368 1931 1276 1833T1050 1733Q978 1732 929 1754T844 1804T770 1853T683 1875Q630 1875 596 1833T562 1723Z" />
<glyph unicode="&#xf6;" glyph-name="uni00F6" horiz-adv-x="1712" d="M856 -30Q631 -30 466 69T211 346T120 762Q120 1000 210 1179T466 1457T856 1556Q1081 1556 1246 1457T1501 1179T1592 762Q1592 524 1502 346T1246 69T856 -30ZM858 260Q980 260 1062 327T1184
509T1225 763Q1225 904 1185 1018T1062 1201T858 1269Q733 1269 651 1201T528 1019T487 763Q487 623 527 509T650 328T858 260ZM557 1762Q478 1762 421 1818T363 1950Q363 2030 420 2084T557 2139Q638 2139 693 2085T749 1950Q749 1874 694 1818T557 1762ZM1157
1762Q1078 1762 1021 1818T963 1950Q963 2030 1020 2084T1157 2139Q1238 2139 1293 2085T1349 1950Q1349 1874 1294 1818T1157 1762Z" />
<glyph unicode="&#xf7;" glyph-name="uni00F7" horiz-adv-x="1894" d="M1627 963V662H267V963H1627ZM947 50Q855 50 791 114T726 271Q726 361 790 425T947 489Q1037 489 1101 425T1165 271Q1165 179 1101 115T947 50ZM947 1137Q886 1137 836 1166T756 1246T726
1358Q726 1448 790 1512T947 1576Q1037 1576 1101 1512T1165 1358Q1165 1267 1101 1202T947 1137Z" />
<glyph unicode="&#xf8;" glyph-name="uni00F8" horiz-adv-x="1712" d="M399 -94L218 30L1311 1618L1494 1494L399 -94ZM856 -32Q631 -32 466 67T211 344T120 760Q120 998 210 1177T466 1455T856 1554Q1081 1554 1246 1455T1501 1177T1592 760Q1592 523 1502 345T1246
67T856 -32ZM858 258Q980 258 1062 325T1184 507T1225 762Q1225 902 1185 1016T1062 1199T858 1267Q733 1267 651 1199T528 1017T487 762Q487 621 527 507T650 326T858 258Z" />
<glyph unicode="&#xf9;" glyph-name="uni00F9" horiz-adv-x="1713" d="M1165 646V1536H1527V0H1176V273H1160Q1108 144 990 62T698 -20Q547 -20 432 47T251 244T186 558V1536H548V614Q548 468 628 382T838 296Q918 296 993 335T1116 451T1165 646ZM726 1738L419
2195H774L997 1738H726Z" />
<glyph unicode="&#xfa;" glyph-name="uni00FA" horiz-adv-x="1713" d="M1165 646V1536H1527V0H1176V273H1160Q1108 144 990 62T698 -20Q547 -20 432 47T251 244T186 558V1536H548V614Q548 468 628 382T838 296Q918 296 993 335T1116 451T1165 646ZM720 1738L944
2195H1298L991 1738H720Z" />
<glyph unicode="&#xfb;" glyph-name="uni00FB" horiz-adv-x="1713" d="M1165 646V1536H1527V0H1176V273H1160Q1108 144 990 62T698 -20Q547 -20 432 47T251 244T186 558V1536H548V614Q548 468 628 382T838 296Q918 296 993 335T1116 451T1165 646ZM1061 1720L858
1976L655 1720H338V1734L717 2166H1000L1378 1734V1720H1061Z" />
<glyph unicode="&#xfc;" glyph-name="uni00FC" horiz-adv-x="1713" d="M1165 646V1536H1527V0H1176V273H1160Q1108 144 990 62T698 -20Q547 -20 432 47T251 244T186 558V1536H548V614Q548 468 628 382T838 296Q918 296 993 335T1116 451T1165 646ZM559 1762Q480
1762 423 1818T365 1950Q365 2030 422 2084T559 2139Q640 2139 695 2085T751 1950Q751 1874 696 1818T559 1762ZM1159 1762Q1080 1762 1023 1818T965 1950Q965 2030 1022 2084T1159 2139Q1240 2139 1295 2085T1351 1950Q1351 1874 1296 1818T1159 1762Z" />
<glyph unicode="&#xfd;" glyph-name="uni00FD" horiz-adv-x="1622" d="M411 -576Q337 -576 275 -565T175 -538L259 -256Q338 -279 400 -278T509 -240T590 -115L621 -32L64 1536H448L802 376H818L1173 1536H1558L943 -186Q900 -308 829 -395T656 -529T411 -576ZM671
1738L895 2195H1249L942 1738H671Z" />
<glyph unicode="&#xfe;" glyph-name="uni00FE" horiz-adv-x="1722" d="M186 2048H548V1228L429 762L548 298V-576H186V2048ZM402 1337H566Q593 1386 641 1436T769 1521T966 1556Q1142 1556 1285 1466T1514 1199T1599 766Q1600 512 1516 335T1289 66T966 -27Q852
-27 773 6T644 90T566 191H402V1337ZM1251 768Q1252 914 1211 1024T1086 1197T877 1259Q752 1259 673 1195T556 1021T518 768Q519 627 556 514T672 336T877 270Q1001 270 1084 333T1209 508T1251 768Z" />
<glyph unicode="&#xff;" glyph-name="uni00FF" horiz-adv-x="1622" d="M411 -576Q337 -576 275 -565T175 -538L259 -256Q338 -279 400 -278T509 -240T590 -115L621 -32L64 1536H448L802 376H818L1173 1536H1558L943 -186Q900 -308 829 -395T656 -529T411 -576ZM510
1762Q432 1762 375 1818T317 1950Q317 2030 374 2084T510 2139Q591 2139 646 2085T702 1950Q702 1874 647 1818T510 1762ZM1110 1762Q1032 1762 975 1818T917 1950Q917 2030 974 2084T1110 2139Q1191 2139 1246 2085T1302 1950Q1302 1874 1247 1818T1110 1762Z"
/>
<glyph unicode="&#x2013;" glyph-name="uni2013" horiz-adv-x="1408" d="M1408 1002V704H0V1002H1408Z" />
<glyph unicode="&#x2014;" glyph-name="uni2014" horiz-adv-x="2816" d="M2816 1002V704H0V1002H2816Z" />
<glyph unicode="&#x2018;" glyph-name="uni2018" horiz-adv-x="642" d="M149 1408V1612Q149 1700 182 1795T274 1976T406 2121L574 2012Q515 1923 476 1827T437 1614V1408H149Z" />
<glyph unicode="&#x2019;" glyph-name="uni2019" horiz-adv-x="602" d="M493 2048V1844Q493 1756 460 1662T368 1482T236 1335L68 1444Q123 1527 164 1623T205 1842V2048H493Z" />
<glyph unicode="&#x201a;" glyph-name="uni201A" horiz-adv-x="642" d="M491 256V52Q491 -36 458 -130T366 -310T234 -457L66 -348Q121 -265 162 -169T203 50V256H491Z" />
<glyph unicode="&#x201c;" glyph-name="uni201C" horiz-adv-x="1149" d="M149 1408V1612Q149 1700 182 1795T274 1976T406 2121L574 2012Q515 1923 476 1827T437 1614V1408H149ZM656 1408V1612Q656 1700 689 1795T781 1976T913 2121L1081 2012Q1022 1923 983 1827T944
1614V1408H656Z" />
<glyph unicode="&#x201d;" glyph-name="uni201D" horiz-adv-x="1147" d="M493 2048V1844Q493 1756 460 1662T368 1482T236 1335L68 1444Q123 1527 164 1623T205 1842V2048H493ZM998 2048V1844Q998 1756 965 1662T873 1482T742 1335L574 1444Q628 1527 669 1623T710
1842V2048H998Z" />
<glyph unicode="&#x201e;" glyph-name="uni201E" horiz-adv-x="1147" d="M490 256V52Q490 -36 457 -130T365 -310T233 -457L65 -348Q120 -265 161 -169T202 50V256H490ZM995 256V52Q995 -36 962 -130T870 -310T739 -457L571 -348Q625 -265 666 -169T707 50V256H995Z" />
<glyph unicode="&#x2022;" glyph-name="uni2022" horiz-adv-x="1398" d="M699 376Q578 376 478 435T319 595T259 816Q259 938 318 1037T478 1196T699 1256Q821 1256 920 1197T1079 1038T1139 816Q1139 695 1080 595T921 436T699 376Z" />
<glyph unicode="&#x2039;" glyph-name="uni2039" horiz-adv-x="1072" d="M902 220H576L172 820V840H518L902 220ZM902 1448L518 828H172V848L576 1448H902Z" />
<glyph unicode="&#x203a;" glyph-name="uni203A" horiz-adv-x="1072" d="M158 220L542 840H888V820L484 220H158ZM158 1448H484L888 848V828H542L158 1448Z" />
</font>
</defs>
</svg>
